※上記の広告は60日以上更新のないWIKIに表示されています。更新することで広告が下部へ移動します。

コマンドプロンプトで「fsutil file createnew 作りたいファイル名.iso 希望のファイル容量」を実行
一部はファイル容量だけでなくトラックデータも必要なのでcueシートも作ってあげる必要がある
作ったイメージファイルをDaemon Toolでマウントして使えばレアモンスターがあなたに!

  • レアディナシー
初期取得スキル
火遠距離範囲Lv1
中/遠距離Lv1
範囲攻撃強化
通称:赤蝶
ファイル形式/ファイル容量
ISO/3269623808byte


  • レアディナシー
初期取得スキル
風中距離Lv1
水遠距離Lv1
範囲回復Lv1
通称:ミュー
ファイル形式/ファイル容量
bin/503864256byte
cueシート
FILE "ファイル名.bin" BINARY
TRACK 01 AUDIO
INDEX 01 00:00:00
TRACK 02 AUDIO
INDEX 01 04:37:00
TRACK 03 AUDIO
INDEX 01 08:13:00
TRACK 04 AUDIO
INDEX 01 11:51:00
TRACK 05 AUDIO
INDEX 01 16:23:00
TRACK 06 AUDIO
INDEX 01 21:35:00
TRACK 07 AUDIO
INDEX 01 25:43:00
TRACK 08 AUDIO
INDEX 01 29:58:00
TRACK 09 AUDIO
INDEX 01 34:51:00
TRACK 10 AUDIO
INDEX 01 39:15:00
TRACK 11 AUDIO
INDEX 01 43:10:00


  • レアディナシー
初期習得スキル
中距離範囲眩暈
水遠距離範囲Lv1
範囲回復Lv1
通称:天真爛漫娘
ファイル形式/ファイル容量
384184320byte


  • レアピクシー
初期習得スキル
近接火属性物理Lv1
中距離命中回避ダウン
中遠距離範囲Lv1
ファイル形式/ファイル容量
1064468480byte


  • レアパンチョ
初期取得スキル
強近接Lv3
水中距離Lv2
水遠距離Lv2
ファイル形式/ファイル容量
ISO/497099904byte
cueシート
FILE "ファイル名.iso" BINARY
TRACK 01 MODE1/2352
INDEX 01 00:00:00


  • レアパンチョ
初期取得スキル
強近接Lv2
中距離防御低下
中遠距離範囲Lv1
ファイル形式/ファイル容量
ISO/4376068096byte


  • レアキキモ
初期取得スキル
風中距離Lv1
風遠距離Lv1
ファイル形式/ファイル容量
ISO/7362945024byte


  • レアコルヌー
初期取得スキル
全力パンチ
近/中距離範囲Lv1
中/遠距離範囲Lv1
ファイル形式/ファイル容量
img/560425152byte
cueシート
FILE "ファイル名.img" BINARY
TRACK 01 MODE2/2352
INDEX 01 00:00:00


  • レアワーム MF
初期取得スキル
ファイル形式/ファイル容量
376010352byte

  • レアモッチー MF2
初期取得スキル
ファイル形式/ファイル容量
393459712byte

  • レアハム MF4
初期取得スキル
地割りLv1
ファイル形式/ファイル容量
1987772416byte

  • レアクエルノ
初期習得スキル
近接麻痺
中距離範囲麻痺
中遠範囲Lv1
ファイル形式/ファイル容量
3329359872byte


  • レアパンチョ
初期習得スキル
火中距離Lv1
土遠距離Lv1
近/中範囲Lv1
ファイル形式/ファイル容量
646305792byte
備考:ログイン付録のヒゲチョ














広告Sage